SPD Jarmark - 12.9.2021 - České Budějovice

Zajímá vás politika?

Moderátor: Moderátoři

Odpovědět
ostracik
Začátečník
Začátečník
Příspěvky: 26
Registrován: pát 10. pro 2010 22:10:55

SPD Jarmark - 12.9.2021 - České Budějovice

Příspěvek od ostracik »

Tomio Okamura- předseda hnutí SPD
Radim Fiala - místopředseda hnutí SPD


krátká ukázka
https://ulozto.cz/file/E53Wh7RMC5e5/c-b ... EQIQOyMN==
Count of audio streams : 1
Video_Format_List : AVC
Video_Format_WithHint_List : AVC
Video kodeky : AVC
Video_Language_List : English
Audio_Format_List : AAC LC
Audio_Format_WithHint_List : AAC LC
Audio kodeky : AAC LC
Audio_Language_List : English
Celý název a cesta : D:\foták\Č.Budějovice 12.9. SPD.mp4
Název složky : D:\foták
File name extension : Č.Budějovice 12.9. SPD.mp4
Název souboru : Č.Budějovice 12.9. SPD
Přípona souboru : mp4
Formát : MPEG-4
Formát : MPEG-4
Formát/Extensions usually used : braw mov mp4 m4v m4a m4b m4p m4r 3ga 3gpa 3gpp 3gp 3gpp2 3g2 k3g jpm jpx mqv ismv isma ismt f4a f4b f4v
Commercial name : MPEG-4
Format profile : Base Media / Version 2
Internet media type : video/mp4
Codec ID : mp42
Codec ID : mp42 (isom/mp42)
Codec ID/Url : http://www.apple.com/quicktime/download/standalone.html
CodecID_Compatible : isom/mp42
Velikost souboru : 9742237567
Velikost souboru : 9,07 GiB
Velikost souboru : 9 GiB
Velikost souboru : 9,1 GiB
Velikost souboru : 9,07 GiB
Velikost souboru : 9,073 GiB
Duration : 3879108
Duration : 1 h 4 min
Duration : 1 h 4 min 39 s 108 ms
Duration : 1 h 4 min
Duration : 01:04:39.108
Duration : 01:04:23:14
Duration : 01:04:39.108 (01:04:23:14)
Celkový BitRate : 20091707
Celkový BitRate : 20,1 Mb/s
Frame rate : 23.907
Frame rate : 23,907 FPS
Frame count : 92726
Stream size : 2263860
Stream size : 2,16 MiB (0%)
Stream size : 2 MiB
Stream size : 2,2 MiB
Stream size : 2,16 MiB
Stream size : 2,159 MiB
Stream size : 2,16 MiB (0%)
Proportion of this stream : 0.00023
HeaderSize : 405174
DataSize : 9739974448
FooterSize : 1857945
IsStreamable : No
Encoded date : UTC 2021-09-12 13:17:58
Tagged date : UTC 2021-09-12 13:17:58
File creation date : UTC 2021-09-12 13:18:04.000
File creation date (local) : 2021-09-12 15:18:04.000
File last modification date : UTC 2021-09-12 13:18:04.000
File last modification date (local) : 2021-09-12 15:18:04.000
xyz : +48.9743+014.4747/
mcvr : /:Ï6dªÒ†g›2_R,:Töxíʪ&TB]{r(ê! / ¶–Q00–7°õßòɆÔ×W™õ^! t=ž};£jE‡Qꭳϧt!/³Ï§tâ&Ï>ÑbŠóI™RϹYê&è†Ï6eEã «²9þÞè`X'6vŒï/ê7«%†+Ï&d’‰Š!Ú]ÇÉp–äZϹCVŠV›º¼`–a’,0ë<ٔ`ŒƒéïZ託ŠV›º$0ê¼ÝÑ!‡Yæ̤Pê´ÝÓþýzùd„8¡Öi³++C³Í™UQ / ˆI¨aœ½ø##€„¶¤8u>«ÍA‰éèœ2'y^êÄnê=P…•¨1==ƒÓÑPâ:ú*ÛA›¦*rÉЄ+‰šœ0Ü®ÃÈ+êE‡Qê½0IôóB¥ž;r†ÃÈ '6mNèi¡ŠëÉÝ,1]y;¥ÔL(›òißá7äÓ¿Â"…³Ï§tí¤&)ÌÙãꅳϧt‚ÙÁ7hºtÑVÌ_ыgì—ÙçÓºò(D,Ï7¯ÎÏ>Õ­ ŠRÆñ–k<£„Âà°«P™ÐýÍ$Q]i;¥!„Dîòo4Tk8"œ°¼gš­¥Ü|’E / ãÄÏ:S¾ˆ†+Ï&d¾Ó.½‘±ÙÌq»vkÅ¢ÊPÚ·øñdMž};ªÅ«MÝR Mۘõ.7Ig…Þ'zÉ÷¢—„L¨EÙçÓº®¤Xu ª„;I‰\Þz ¦µ"ÝÇÑÕUü8û·”%Ñ6yô´Ë¯e[L7áRϹSgŸNêðÀayùQ–n/N‰˜z€}óY£y<&ÕçLÀKWšLÈ@biÙMž};¦¢‡Y¦Ì„A¶xíÊk<vågŸNêlóéÝEED=ž};©³Ï§tP v^)Úa¿CÙçÓº›<úwDQxíÊöyôî¦Ï>Ñ6õ쏱9ó´Ã~€¢&Ï>Õö'>axíÊbià鍆}{)«©.;ü7\¨„¾´ŽW«×Ø^’Å / ¶ƒhCÙ^îyŠö¹‘Eàí0߄!ÁÌÒ᏿Êænm̗»3öŽŠhYñˆ†fn·pGGØÍØó / ۗ2„$­.ã䆴v#̪ìì~ÓÑ/ãNv9!È HMß:£@¹÷±VÙ~ž½ÑDĒõQŠ­7t*Cè@5“y*¦@$°^&³ÇnP–a€ä6yôîœCÙçÓº¢û<úwDDÙçÓº¢]6`7OÞj @„*ˆ@»‰÷ËÔkXN̆™#;áʬFî£ÕUUËØ܉©Gª´0ApÙn܄/5!{³Ï§tDMž};¡ }ž};©³Ï§tÆÏ>ÔÙçÓº—ÙçÓºÃ>½“›<úwW؜0„$vDV~5ãTî-æ´m
com.android.version : 11

Video
Count : 383
Count of stream of this kind : 1
Kind of stream : Video
Kind of stream : Video
Stream identifier : 0
StreamOrder : 0
Inform : Count : 383 / Count of stream of this kind : 1 / Kind of stream : Video / Kind of stream : Video / Stream identifier : 0 / StreamOrder : 0 / Inform : Count : 383 / Count of stream of this kind : 1 / Kind of stream : Video / Kind of stream : Video / Stream identifier : 0 / StreamOrder : 0 / Inform : English, 20,0 Mb/s, 1920*1080 (16:9), at 23,907 FPS, AVC (NTSC) (High@L4) (CABAC / 1 Ref Frames) / ID : 1 / ID : 1 / Formát : AVC / Formát : AVC / Formát/Info : Advanced Video Codec / Formát/Url : http://developers.videolan.org/x264.html / Commercial name : AVC / Format profile : High@L4 / Format settings : CABAC / 1 Ref Frames / Format settings, CABAC : Yes / Format settings, CABAC : Ano / Format settings, Reference frames : 1 / Format settings, Reference frames : 1 frame / Format settings, GOP : M=1, N=30 / Internet media type : video/H264 / Codec ID : avc1 / Codec ID/Info : Advanced Video Coding / Duration : 3879108 / Duration : 1 h 4 min / Duration : 1 h 4 min 39 s 108 ms / Duration : 1 h 4 min / Duration : 01:04:39.108 / Duration : 01:04:23:14 / Duration : 01:04:39.108 (01:04:23:14) / Source duration : 3878654 / Source duration : 1 h 4 min / Source duration : 1 h 4 min 38 s 654 ms / Source duration : 1 h 4 min / Source duration : 01:04:38.654 / Bit rate : 19993593 / Bit rate : 20,0 Mb/s / Šířka : 1920 / Šířka : 1 920pixely / Výška : 1080 / Výška : 1 080pixely / Stored_Height : 1088 / Sampled_Width : 1920 / Sampled_Height : 1080 / Poměr pixelů : 1.000 / Poměr stran : 1.778 / Poměr stran : 16:9 / Rotation : 90.000 / Rotation : 90° / Frame rate mode : VFR / Frame rate mode : Variable / Frame rate : 23.907 / Frame rate : 23,907 FPS / Minimum frame rate : 3.336 / Minimum frame rate : 3,336 FPS / Maximum frame rate : 32.491 / Maximum frame rate : 32,491 FPS / Frame count : 92726 / Source frame count : 92726 / Standard : NTSC / Color space : YUV / Chroma subsampling : 4:2:0 / Chroma subsampling : 4:2:0 / Bit depth : 8 / Bit depth : 8 bits / Scan type : Progressive / Scan type : Progressive / Bits/(Pixel*Frame) : 0.403 / Stream size : 9693425952 / Stream size : 9,03 GiB (99%) / Stream size : 9 GiB / Stream size : 9,0 GiB / Stream size : 9,03 GiB / Stream size : 9,028 GiB / Stream size : 9,03 GiB (99%) / Proportion of this stream : 0.99499 / Source stream size : 9693425952 / Source stream size : 9,03 GiB (99%) / Source stream size : 9 GiB / Source stream size : 9,0 GiB / Source stream size : 9,03 GiB / Source stream size : 9,028 GiB / Source stream size : 9,03 GiB (99%) / Source_StreamSize_Proportion : 0.99499 / Titul : VideoHandle / Jazyk : en / Jazyk : English / Jazyk : English / Jazyk : en / Jazyk : eng / Jazyk : en / Encoded date : UTC 2021-09-12 13:17:58 / Tagged date : UTC 2021-09-12 13:17:58 / colour_description_present : Yes / colour_description_present_Source : Container / Stream / Color range : Limited / colour_range_Source : Container / colour_range_Original : Full / colour_range_Original_Source : Stream / Color primaries : BT.709 / colour_primaries_Source : Container / colour_primaries_Original : BT.601 PAL / colour_primaries_Original_Source : Stream / Transfer characteristics : BT.709 / transfer_characteristics_Source : Container / transfer_characteristics_Original : BT.601 / transfer_characteristics_Original_Source : Stream / Matrix coefficients : BT.709 / matrix_coefficients_Source : Container / matrix_coefficients_Original : BT.470 System B/G / matrix_coefficients_Original_Source : Stream / Source_Delay : 436 / Source_Delay_Source : Container / mdhd_Duration : 3879108 / Codec configuration box : avcC / ID : 1 / ID : 1 / Formát : AVC / Formát : AVC / Formát/Info : Advanced Video Codec / Formát/Url : http://developers.videolan.org/x264.html / Commercial name : AVC / Format profile : High@L4 / Format settings : CABAC / 1 Ref Frames / Format settings, CABAC : Yes / Format settings, CABAC : Ano / Format settings, Reference frames : 1 / Format settings, Reference frames : 1 frame / Format settings, GOP : M=1, N=30 / Internet media type : video/H264 / Codec ID : avc1 / Codec ID/Info : Advanced Video Coding / Duration : 3879108 / Duration : 1 h 4 min / Duration : 1 h 4 min 39 s 108 ms / Duration : 1 h 4 min / Duration : 01:04:39.108 / Duration : 01:04:23:14 / Duration : 01:04:39.108 (01:04:23:14) / Source duration : 3878654 / Source duration : 1 h 4 min / Source duration : 1 h 4 min 38 s 654 ms / Source duration : 1 h 4 min / Source duration : 01:04:38.654 / Bit rate : 19993593 / Bit rate : 20,0 Mb/s / Šířka : 1920 / Šířka : 1 920pixely / Výška : 1080 / Výška : 1 080pixely / Stored_Height : 1088 / Sampled_Width : 1920 / Sampled_Height : 1080 / Poměr pixelů : 1.000 / Poměr stran : 1.778 / Poměr stran : 16:9 / Rotation : 90.000 / Rotation : 90° / Frame rate mode : VFR / Frame rate mode : Variable / Frame rate : 23.907 / Frame rate : 23,907 FPS / Minimum frame rate : 3.336 / Minimum frame rate : 3,336 FPS / Maximum frame rate : 32.491 / Maximum frame rate : 32,491 FPS / Frame count : 92726 / Source frame count : 92726 / Standard : NTSC / Color space : YUV / Chroma subsampling : 4:2:0 / Chroma subsampling : 4:2:0 / Bit depth : 8 / Bit depth : 8 bits / Scan type : Progressive / Scan type : Progressive / Bits/(Pixel*Frame) : 0.403 / Stream size : 9693425952 / Stream size : 9,03 GiB (99%) / Stream size : 9 GiB / Stream size : 9,0 GiB / Stream size : 9,03 GiB / Stream size : 9,028 GiB / Stream size : 9,03 GiB (99%) / Proportion of this stream : 0.99499 / Source stream size : 9693425952 / Source stream size : 9,03 GiB (99%) / Source stream size : 9 GiB / Source stream size : 9,0 GiB / Source stream size : 9,03 GiB / Source stream size : 9,028 GiB / Source stream size : 9,03 GiB (99%) / Source_StreamSize_Proportion : 0.99499 / Titul : VideoHandle / Jazyk : en / Jazyk : English / Jazyk : English / Jazyk : en / Jazyk : eng / Jazyk : en / Encoded date : UTC 2021-09-12 13:17:58 / Tagged date : UTC 2021-09-12 13:17:58 / colour_description_present : Yes / colour_description_present_Source : Container / Stream / Color range : Limited / colour_range_Source : Container / colour_range_Original : Full / colour_range_Original_Source : Stream / Color primaries : BT.709 / colour_primaries_Source : Container / colour_primaries_Original : BT.601 PAL / colour_primaries_Original_Source : Stream / Transfer characteristics : BT.709 / transfer_characteristics_Source : Container / transfer_characteristics_Original : BT.601 / transfer_characteristics_Original_Source : Stream / Matrix coefficients : BT.709 / matrix_coefficients_Source : Container / matrix_coefficients_Original : BT.470 System B/G / matrix_coefficients_Original_Source : Stream / Source_Delay : 436 / Source_Delay_Source : Container / mdhd_Duration : 3879108 / Codec configuration box : avcC
ID : 1
ID : 1
Formát : AVC
Formát : AVC
Formát/Info : Advanced Video Codec
Formát/Url : http://developers.videolan.org/x264.html
Commercial name : AVC
Format profile : High@L4
Format settings : CABAC / 1 Ref Frames
Format settings, CABAC : Yes
Format settings, CABAC : Ano
Format settings, Reference frames : 1
Format settings, Reference frames : 1 frame
Format settings, GOP : M=1, N=30
Internet media type : video/H264
Codec ID : avc1
Codec ID/Info : Advanced Video Coding
Duration : 3879108
Duration : 1 h 4 min
Duration : 1 h 4 min 39 s 108 ms
Duration : 1 h 4 min
Duration : 01:04:39.108
Duration : 01:04:23:14
Duration : 01:04:39.108 (01:04:23:14)
Source duration : 3878654
Source duration : 1 h 4 min
Source duration : 1 h 4 min 38 s 654 ms
Source duration : 1 h 4 min
Source duration : 01:04:38.654
Bit rate : 19993593
Bit rate : 20,0 Mb/s
Šířka : 1920
Šířka : 1 920pixely
Výška : 1080
Výška : 1 080pixely
Stored_Height : 1088
Sampled_Width : 1920
Sampled_Height : 1080
Poměr pixelů : 1.000
Poměr stran : 1.778
Poměr stran : 16:9
Rotation : 90.000
Rotation : 90°
Frame rate mode : VFR
Frame rate mode : Variable
Frame rate : 23.907
Frame rate : 23,907 FPS
Minimum frame rate : 3.336
Minimum frame rate : 3,336 FPS
Maximum frame rate : 32.491
Maximum frame rate : 32,491 FPS
Frame count : 92726
Source frame count : 92726
Standard : NTSC
Color space : YUV
Chroma subsampling : 4:2:0
Chroma subsampling : 4:2:0
Bit depth : 8
Bit depth : 8 bits
Scan type : Progressive
Scan type : Progressive
Bits/(Pixel*Frame) : 0.403
Stream size : 9693425952
Stream size : 9,03 GiB (99%)
Stream size : 9 GiB
Stream size : 9,0 GiB
Stream size : 9,03 GiB
Stream size : 9,028 GiB
Stream size : 9,03 GiB (99%)
Proportion of this stream : 0.99499
Source stream size : 9693425952
Source stream size : 9,03 GiB (99%)
Source stream size : 9 GiB
Source stream size : 9,0 GiB
Source stream size : 9,03 GiB
Source stream size : 9,028 GiB
Source stream size : 9,03 GiB (99%)
Source_StreamSize_Proportion : 0.99499
Titul : VideoHandle
Jazyk : en
Jazyk : English
Jazyk : English
Jazyk : en
Jazyk : eng
Jazyk : en
Encoded date : UTC 2021-09-12 13:17:58
Tagged date : UTC 2021-09-12 13:17:58
colour_description_present : Yes
colour_description_present_Source : Container / Stream
Color range : Limited
colour_range_Source : Container
colour_range_Original : Full
colour_range_Original_Source : Stream
Color primaries : BT.709
colour_primaries_Source : Container
colour_primaries_Original : BT.601 PAL
colour_primaries_Original_Source : Stream
Transfer characteristics : BT.709
transfer_characteristics_Source : Container
transfer_characteristics_Original : BT.601
transfer_characteristics_Original_Source : Stream
Matrix coefficients : BT.709
matrix_coefficients_Source : Container
matrix_coefficients_Original : BT.470 System B/G
matrix_coefficients_Original_Source : Stream
Source_Delay : 436
Source_Delay_Source : Container
mdhd_Duration : 3879108
Codec configuration box : avcC

Audio
Count : 281
Count of stream of this kind : 1
Kind of stream : Audio
Kind of stream : Audio
Stream identifier : 0
StreamOrder : 1
Inform : Count : 281 / Count of stream of this kind : 1 / Kind of stream : Audio / Kind of stream : Audio / Stream identifier : 0 / StreamOrder : 1 / Inform : English, 96,0 kb/s, 48,0 kHz, 2 kanály, AAC LC / ID : 2 / ID : 2 / Formát : AAC / Formát : AAC LC / Formát/Info : Advanced Audio Codec Low Complexity / Commercial name : AAC / Format_AdditionalFeatures : LC / Codec ID : mp4a-40-2 / Duration : 3878979 / Duration : 1 h 4 min / Duration : 1 h 4 min 38 s 979 ms / Duration : 1 h 4 min / Duration : 01:04:38.979 / Duration : 01:04:28:31 / Duration : 01:04:38.979 (01:04:28:31) / Source duration : 3879040 / Source duration : 1 h 4 min / Source duration : 1 h 4 min 39 s 40 ms / Source duration : 1 h 4 min / Source duration : 01:04:39.040 / Bit rate mode : CBR / Bit rate mode : Constant / Bit rate : 96000 / Bit rate : 96,0 kb/s / Kanál(y) : 2 / Kanál(y) : 2 kanály / Channel positions : Front: L R / Channel positions : 2/0/0 / Channel layout : L R / Samples per frame : 1024 / Sampling rate : 48000 / Sampling rate : 48,0 kHz / Samples count : 186190992 / Frame rate : 46.875 / Frame rate : 46,875 FPS (1024 SPF) / Frame count : 181827 / Source frame count : 181830 / Compression mode : Lossy / Compression mode : Lossy / Stream size : 46547755 / Stream size : 44,4 MiB (0%) / Stream size : 44 MiB / Stream size : 44 MiB / Stream size : 44,4 MiB / Stream size : 44,39 MiB / Stream size : 44,4 MiB (0%) / Proportion of this stream : 0.00478 / Source stream size : 46548480 / Source stream size : 44,4 MiB (0%) / Source stream size : 44 MiB / Source stream size : 44 MiB / Source stream size : 44,4 MiB / Source stream size : 44,39 MiB / Source stream size : 44,4 MiB (0%) / Source_StreamSize_Proportion : 0.00478 / Titul : SoundHandle / Jazyk : en / Jazyk : English / Jazyk : English / Jazyk : en / Jazyk : eng / Jazyk : en / Encoded date : UTC 2021-09-12 13:17:58 / Tagged date : UTC 2021-09-12 13:17:58 / mdhd_Duration : 3878979
ID : 2
ID : 2
Formát : AAC
Formát : AAC LC
Formát/Info : Advanced Audio Codec Low Complexity
Commercial name : AAC
Format_AdditionalFeatures : LC
Codec ID : mp4a-40-2
Duration : 3878979
Duration : 1 h 4 min
Duration : 1 h 4 min 38 s 979 ms
Duration : 1 h 4 min
Duration : 01:04:38.979
Duration : 01:04:28:31
Duration : 01:04:38.979 (01:04:28:31)
Source duration : 3879040
Source duration : 1 h 4 min
Source duration : 1 h 4 min 39 s 40 ms
Source duration : 1 h 4 min
Source duration : 01:04:39.040
Bit rate mode : CBR
Bit rate mode : Constant
Bit rate : 96000
Bit rate : 96,0 kb/s
Kanál(y) : 2
Kanál(y) : 2 kanály
Channel positions : Front: L R
Channel positions : 2/0/0
Channel layout : L R
Samples per frame : 1024
Sampling rate : 48000
Sampling rate : 48,0 kHz
Samples count : 186190992
Frame rate : 46.875
Frame rate : 46,875 FPS (1024 SPF)
Frame count : 181827
Source frame count : 181830
Compression mode : Lossy
Compression mode : Lossy
Stream size : 46547755
Stream size : 44,4 MiB (0%)
Stream size : 44 MiB
Stream size : 44 MiB
Stream size : 44,4 MiB
Stream size : 44,39 MiB
Stream size : 44,4 MiB (0%)
Proportion of this stream : 0.00478
Source stream size : 46548480
Source stream size : 44,4 MiB (0%)
Source stream size : 44 MiB
Source stream size : 44 MiB
Source stream size : 44,4 MiB
Source stream size : 44,39 MiB
Source stream size : 44,4 MiB (0%)
Source_StreamSize_Proportion : 0.00478
Titul : SoundHandle
Jazyk : en
Jazyk : English
Jazyk : English
Jazyk : en
Jazyk : eng
Jazyk : en
Encoded date : UTC 2021-09-12 13:17:58
Tagged date : UTC 2021-09-12 13:17:58
mdhd_Duration : 3878979
Download Jen registrovaní můžou vidět odkaz. Registruj se nebo se přihlaš. bez hesla

Odpovědět

Zpět na „Politika“