Registrovat    Přihlásit se    Fórum    Hledat    FAQ
Vyspěte se královsky! www.hezkynabytek.cz
MP3Hits - mp3 ke stažení zdarma » ...:DOWNLOAD FILMY:... » Filmy Premiéry
 

MP3Hits - mp3 ke stažení zdarma » ...:DOWNLOAD FILMY:... » Filmy Premiéry




Odeslat nové téma Odpovědět na téma  [ Příspěvek: 1 ] 
Autor Zpráva
 Předmět příspěvku: The Night Comes for Us (2018)
 Příspěvek Napsal: sob 03. lis 2018 20:21:23 
Offline
Občasný přispěvatel
Občasný přispěvatel

Registrován: pát 02. lis 2018 11:51:48
Příspěvky: 87
Obrázek

The Night Comes for Us (2018)

Akční / Krimi / Thriller

Indonésie, 2018, 121 min

Režie: Timo Tjahjanto
Scénář: Timo Tjahjanto
Kamera: Gunnar Nimpuno
Hrají: Joe Taslim, Iko Uwais, Julie Estelle, Zack Lee, Shareefa Daanish, Abimana Aryasatya, Hannah Al Rashid, Dian Sastrowardoyo, Sunny Pang
Producenti: Wicky V. Olindo

Kód: Vybrat vše
Jen registrovaní mohou vidět odkaz. Přihlaš se nebo se zaregistruj.


Ito (Joe Taslim), ganglandský enforcer, bol chytený uprostred zradného a násilného povstania v jeho rodine zločinu triády po návrate domov zo zahraničia.

Format
: Matroska
Format version : Version 4
File size : 2.14 GiB
Duration : 2 h 0 min
Overall bit rate mode : Variable
Overall bit rate : 2 531 kb/s

Video
Format : AVC
Format/Info : Advanced Video Codec
Format profile : Main@L3.1
Format settings : CABAC / 3 Ref Frames
Format settings, CABAC : Yes
Format settings, ReFrames : 3 frames
Codec ID : V_MPEG4/ISO/AVC
Duration : 2 h 0 min
Bit rate mode : Variable
Bit rate : 2 150 kb/s
Maximum bit rate : 3 225 kb/s
Width : 1 280 pixels
Height : 720 pixels

Display aspect ratio : 16:9
Frame rate mode : Constant
Frame rate : 23.976 (24000/1001) FPS

Audio
ID : 2
Format : AC-3
Format/Info : Audio Coding 3
Commercial name : Dolby Digital
Codec ID : A_AC3
Duration : 2 h 0 min
Bit rate mode : Constant
Bit rate : 384 kb/s
Channel(s) : 6 channels
Channel layout : L R C LFE Ls Rs
Sampling rate : 48.0 kHz
Frame rate : 31.250 FPS (1536 SPF)
Bit depth : 16 bits
Compression mode : Lossy
Stream size : 332 MiB (15%)
Service kind : Complete Main
Default : Yes
Forced : No
Encoded date : UTC 2018-10-10 00:00:57

Text #1
ID : 3
Format : UTF-8
Codec ID : S_TEXT/UTF8
Codec ID/Info : UTF-8 Plain Text
Duration : 1 h 48 min
Bit rate : 16 b/s
Count of elements : 448
Stream size : 12.9 KiB (0%)
Title : English
Language :CZECH

Kód: Vybrat vše
Jen registrovaní mohou vidět odkaz. Přihlaš se nebo se zaregistruj.


Nahoru 
 Profil  
Odpovědět s citací  
Zobrazit příspěvky za předchozí:  Seřadit podle  
 
Odeslat nové téma Odpovědět na téma  [ Příspěvek: 1 ] 

MP3Hits - mp3 ke stažení zdarma » ...:DOWNLOAD FILMY:... » Filmy Premiéry


Kdo je online

Uživatelé procházející toto fórum: Žádní registrovaní uživatelé a 2 návštevníků

 
 

  Nemůžete zakládat nová témata v tomto fóru
Nemůžete odpovídat v tomto fóru
Nemůžete upravovat své příspěvky v tomto fóru
Nemůžete mazat své příspěvky v tomto fóru

Hledat:
Přejít na:  

REKLAMNÍ SDĚLENÍ

----------------

----------------