Registrovat    Přihlásit se    Fórum    Hledat    FAQ
Vyspěte se královsky! www.hezkynabytek.cz
MP3Hits - mp3 ke stažení zdarma » ...:DOWNLOAD FILMY:... » Filmy Premiéry
 

MP3Hits - mp3 ke stažení zdarma » ...:DOWNLOAD FILMY:... » Filmy Premiéry




Odeslat nové téma Odpovědět na téma  [ Příspěvek: 1 ] 
Autor Zpráva
 Předmět příspěvku: The Dark (2018)
 Příspěvek Napsal: sob 03. lis 2018 1:54:22 
Offline
Občasný přispěvatel
Občasný přispěvatel

Registrován: pát 02. lis 2018 11:51:48
Příspěvky: 87
Obrázek

[size=24pt]The Dark (2018)[/size]

Horor

Rakousko, 2018, 94 min

Režie: Justin P. Lange, Klemens Hufnagl
Scénář: Justin P. Lange
Kamera: Klemens Hufnagl
Hrají: Nadia Alexander, Toby Nichols, Karl Markovics, Margarete Tiesel, Dan Beirne, Scott Beaudin, Dylan Trowbridge, Chris Farquhar, Sarah Murphy-Dyson
Producenti: Danny Krausz, Kurt Stocker, Laura Perlmutter, Andrew… (více)
Střih: Julia Drack
Scénografie: Danielle Sahota

Nemrtvá dívka Mina (Nadia Alexander) potká jednoho dne slepého chlapce Alexe (Toby Nichols) a rychle se s ním skamarádí. Oba jsou totiž obětmi zneužívání a přátelství jim dodává víru v lepší zítřek. K začátku nové etapy života ale budou muset jít přes mrtvoly.

Format : Matroska
Format version : Version 4
File size : 1.41 GiB
Duration : 1 h 34 min
Overall bit rate : 2 126 kb/s
Movie name : The Dark (2018)

Video
Format : AVC
Format/Info : Advanced Video Codec
Format profile : High@L4
Format settings : CABAC / 4 Ref Frames
Format settings, CABAC : Yes
Format settings, ReFrames : 4 frames
Codec ID : V_MPEG4/ISO/AVC
Duration : 1 h 34 min
Bit rate : 1 700 kb/s
Width : 720 pixels
Height : 304 pixels

Display aspect ratio : 2.35:1
Frame rate mode : Constant
Frame rate : 23.976 (24000/1001) FPS

Audio
Format : AC-3
Format/Info : Audio Coding 3
Commercial name : Dolby Digital
Codec ID : A_AC3
Duration : 1 h 34 min
Bit rate mode : Constant
Bit rate : 448 kb/s
Channel(s) : 6 channels
Channel layout : L R C LFE Ls Rs
Sampling rate : 48.0 kHz
Frame rate : 31.250 FPS (1536 SPF)
Bit depth : 16 bits
Compression mode : Lossy
Delay relative to video : -42 ms
Stream size : 304 MiB (21%)
Title : Surround
Language : English
Service kind : Complete Main
Default : Yes
Forced : No

Text
ID : 3
Format : UTF-8
Codec ID : S_TEXT/UTF8
Codec ID/Info : UTF-8 Plain Text
Duration : 1 h 29 min
Bit rate : 17 b/s
Count of elements : 475
Stream size : 11.5 KiB (0%)
Language : Czech

Kód: Vybrat vše
Jen registrovaní mohou vidět odkaz. Přihlaš se nebo se zaregistruj.


Nahoru 
 Profil  
Odpovědět s citací  
Zobrazit příspěvky za předchozí:  Seřadit podle  
 
Odeslat nové téma Odpovědět na téma  [ Příspěvek: 1 ] 

MP3Hits - mp3 ke stažení zdarma » ...:DOWNLOAD FILMY:... » Filmy Premiéry


Kdo je online

Uživatelé procházející toto fórum: Žádní registrovaní uživatelé a 0 návštevníků

 
 

  Nemůžete zakládat nová témata v tomto fóru
Nemůžete odpovídat v tomto fóru
Nemůžete upravovat své příspěvky v tomto fóru
Nemůžete mazat své příspěvky v tomto fóru

Hledat:
Přejít na:  

REKLAMNÍ SDĚLENÍ

----------------

----------------