Registrovat    Přihlásit se    Fórum    Hledat    FAQ
      
MP3Hits - mp3 ke stažení zdarma » ...:DOWNLOAD FILMY:... » Filmy
 

MP3Hits - mp3 ke stažení zdarma » ...:DOWNLOAD FILMY:... » Filmy




Odeslat nové téma Odpovědět na téma  [ Příspěvek: 1 ] 
Autor Zpráva
 Předmět příspěvku: Last Exorcism Part II, The (2013)
 Příspěvek Napsal: pon 18. úno 2019 21:07:54 
Offline
Občasný přispěvatel
Občasný přispěvatel

Registrován: pát 12. dub 2013 19:55:38
Příspěvky: 78
the.last.exorcism.part.ii.2013.unrated.720p.bluray.x264-blow

Obrázek

info

Kód: Vybrat vše
Jen registrovaní mohou vidět odkaz. Přihlaš se nebo se zaregistruj.


Film The Last Exorcism, Part II je pokračováním hrozivého příběhu mladé dívky.
Nell Sweetzerovú (Ashley Bell) našli opuštěnou a vyděšenou v lese. Přestože se po čase vrací zpět do civilizace, nemůže si vzpomenout, co se s ní vlastně stalo. Uvědomí si však, že je poslední žijící členkou své rodiny. Začíná nový život, avšak s jejím návratem se probudí i silné zlo, které má s Nell nepředstavitelně děsivé plány. Ty ji mohou opět dovést až na pokraj pekla, kde jedinou šancí na záchranu může být již jen rituál vymítání ďábla.


kvalita

General
Complete name : E:\Vypalit\Movie pack\Last Exorcism Part II, The\the.last.exorcism.part.ii.2013.unrated.720p.bluray.x264-blow.mp4
Format : MPEG-4
Format profile : Base Media
Codec ID : isom
File size : 741 MiB
Duration : 1h 30mn
Overall bit rate mode : Constant
Overall bit rate : 1 147 Kbps
Writing application : Lavf57.41.100

Video
ID : 1
Format : MPEG-4 Visual
Format profile : [email protected]
Format settings, BVOP : No
Format settings, QPel : No
Format settings, GMC : No warppoints
Format settings, Matrix : Default (H.263)
Codec ID : 20
Duration : 1h 29mn
Bit rate mode : Constant
Bit rate : 1 024 Kbps
Width : 1 168 pixels
Height : 480 pixels
Display aspect ratio : 2.40:1
Frame rate mode : Constant
Frame rate : 23.976 fps
Color space : YUV
Chroma subsampling : 4:2:0
Bit depth : 8 bits
Scan type : Progressive
Compression mode : Lossy
Bits/(Pixel*Frame) : 0.076
Stream size : 655 MiB (88%)
Writing library : Lavc57.48.101
Language : English

Audio
ID : 2
Format : AAC
Format/Info : Advanced Audio Codec
Format profile : LC
Codec ID : 40
Duration : 1h 30mn
Bit rate mode : Constant
Bit rate : 128 Kbps
Channel(s) : 2 channels
Channel positions : Front: L R
Sampling rate : 44.1 KHz
Compression mode : Lossy
Stream size : 82.7 MiB (11%)
Language : English

Menu #1
ID : 3
Codec ID : text
Duration : 1h 30mn
Language : English
Bit rate mode : CBR
00:00:00.000 : 00:00:00.000
00:06:12.622 : 00:06:12.622
00:11:26.019 : 00:11:26.019
00:14:43.299 : 00:14:43.299
00:19:38.886 : 00:19:38.886
00:24:59.790 : 00:24:59.790
00:31:17.542 : 00:31:17.542
00:37:41.426 : 00:37:41.426
00:43:02.580 : 00:43:02.580
00:47:13.539 : 00:47:13.539
00:52:04.246 : 00:52:04.246
00:57:30.906 : 00:57:30.906
01:03:30.140 : 01:03:30.140
01:09:57.485 : 01:09:57.485
01:14:28.756 : 01:14:28.756
01:21:00.189 : 01:21:00.189

Menu #2
00:00:00.000 : 00:00:00.000
00:06:12.622 : 00:06:12.622
00:11:26.019 : 00:11:26.019
00:14:43.299 : 00:14:43.299
00:19:38.886 : 00:19:38.886
00:24:59.790 : 00:24:59.790
00:31:17.542 : 00:31:17.542
00:37:41.426 : 00:37:41.426
00:43:02.580 : 00:43:02.580
00:47:13.539 : 00:47:13.539
00:52:04.246 : 00:52:04.246
00:57:30.906 : 00:57:30.906
01:03:30.140 : 01:03:30.140
01:09:57.485 : 01:09:57.485
01:14:28.756 : 01:14:28.756
01:21:00.189 : 01:21:00.189


download

Kód: Vybrat vše
Jen registrovaní mohou vidět odkaz. Přihlaš se nebo se zaregistruj.


Nahoru 
 Profil  
Odpovědět s citací  
Zobrazit příspěvky za předchozí:  Seřadit podle  
 
Odeslat nové téma Odpovědět na téma  [ Příspěvek: 1 ] 

MP3Hits - mp3 ke stažení zdarma » ...:DOWNLOAD FILMY:... » Filmy


Kdo je online

Uživatelé procházející toto fórum: Žádní registrovaní uživatelé a 0 návštevníků

 
 

  Nemůžete zakládat nová témata v tomto fóru
Nemůžete odpovídat v tomto fóru
Nemůžete upravovat své příspěvky v tomto fóru
Nemůžete mazat své příspěvky v tomto fóru

Hledat:
Přejít na:  

REKLAMNÍ SDĚLENÍ

----------------

----------------