Registrovat    Přihlásit se    Fórum    Hledat    FAQ
Vyspěte se královsky! www.hezkynabytek.cz
MP3Hits - mp3 ke stažení zdarma » ...:DOWNLOAD FILMY:... » Filmy Premiéry
 

MP3Hits - mp3 ke stažení zdarma » ...:DOWNLOAD FILMY:... » Filmy Premiéry




Odeslat nové téma Odpovědět na téma  [ Příspěvek: 1 ] 
Autor Zpráva
 Předmět příspěvku: Extremity (2018)
 Příspěvek Napsal: ned 11. lis 2018 8:49:37 
Offline
Občasný přispěvatel
Občasný přispěvatel

Registrován: pát 02. lis 2018 11:51:48
Příspěvky: 87
ponte píše:Obrázek

Extremity (2018)

Horor

Kanada, 2018, 103 min

Režie: Anthony DiBlasi
Scénář: David Bond, Scott Swan
Kamera: Scott Winig
Hudba: Adam Barber
Hrají: Tiffany Shepis, Felissa Rose, Chad Rook, Michael St. Michaels, Natalie Victoria, Nick Principe, Ricky Dean Logan, J. LaRose, Jeffrey Reddick

Kvôli svojim fóbiám z detstva sa mladá žena rozhodne podstúpiť atrakciu, ktorej prostredníctvom bude prinútená postaviť sa svojmu najväčšiemu strachu. Čakajú ju zistenia o tom, aké extrémne situácie dokáže prežiť, koľko bolesti vydrží a v neposlednom rade zistí, že je na čase, aby nechala vyjsť na povrch všetok hnev, ktorý v sebe držala kvôli tomu, že ju otec v detstve zneužíval.

Kód: Vybrat vše
Jen registrovaní mohou vidět odkaz. Přihlaš se nebo se zaregistruj.


Format : Matroska
Format version : Version 4
File size : 1.40 GiB
Duration : 1 h 43 min
Overall bit rate : 1 951 kb/s

Video
Format : MPEG-4 Visual
Format profile : Advanced Simple@L5
Format settings : BVOP2
Format settings, BVOP : 2
Format settings, QPel : No
Format settings, GMC : No warppoints
Format settings, Matrix : Default (H.263)
Muxing mode : Packed bitstream
Codec ID : V_MS/VFW/FOURCC / XVID
Codec ID/Hint : XviD
Duration : 1 h 43 min
Bit rate : 1 565 kb/s
Width : 720 pixels
Height : 304 pixels

Display aspect ratio : 2.35:1
Frame rate mode : Constant
Frame rate : 24.000 FPS

Audio
Format : AC-3
Format/Info : Audio Coding 3
Commercial name : Dolby Digital
Codec ID : A_AC3
Duration : 1 h 43 min
Bit rate mode : Constant
Bit rate : 384 kb/s
Channel(s) : 6 channels
Channel layout : L R C LFE Ls Rs
Sampling rate : 48.0 kHz
Frame rate : 31.250 FPS (1536 SPF)
Bit depth : 16 bits
Compression mode : Lossy
Stream size : 283 MiB (20%)
Service kind : Complete Main
Default : Yes
Forced : No

Text
ID : 3
Format : UTF-8
Codec ID : S_TEXT/UTF8
Codec ID/Info : UTF-8 Plain Text
Duration : 1 h 33 min
Bit rate : 37 b/s
Count of elements : 915
Stream size : 25.6 KiB (0%)
Language : Czech

Kód: Vybrat vše
Jen registrovaní mohou vidět odkaz. Přihlaš se nebo se zaregistruj.


Nahoru 
 Profil  
Odpovědět s citací  
Zobrazit příspěvky za předchozí:  Seřadit podle  
 
Odeslat nové téma Odpovědět na téma  [ Příspěvek: 1 ] 

MP3Hits - mp3 ke stažení zdarma » ...:DOWNLOAD FILMY:... » Filmy Premiéry


Kdo je online

Uživatelé procházející toto fórum: Žádní registrovaní uživatelé a 0 návštevníků

 
 

  Nemůžete zakládat nová témata v tomto fóru
Nemůžete odpovídat v tomto fóru
Nemůžete upravovat své příspěvky v tomto fóru
Nemůžete mazat své příspěvky v tomto fóru

Hledat:
Přejít na:  

REKLAMNÍ SDĚLENÍ

----------------

----------------