Registrovat    Přihlásit se    Fórum    Hledat    FAQ
Vyspěte se královsky! www.hezkynabytek.cz
MP3Hits - mp3 ke stažení zdarma » ...:DOWNLOAD FILMY:... » Filmy Premiéry
 

MP3Hits - mp3 ke stažení zdarma » ...:DOWNLOAD FILMY:... » Filmy Premiéry




Odeslat nové téma Odpovědět na téma  [ Příspěvků: 2 ] 
Autor Zpráva
 Předmět příspěvku: Dogman (2018)
 Příspěvek Napsal: pát 16. lis 2018 8:53:57 
Offline
Občasný přispěvatel
Občasný přispěvatel

Registrován: pát 02. lis 2018 11:51:48
Příspěvky: 87
Obrázek

Dogman (2018)

Drama

Itálie / Francie, 2018, 102 min

Režie: Matteo Garrone
Scénář: Ugo Chiti, Massimo Gaudioso, Matteo Garrone
Kamera: Nicolai Brüel
Hudba: Michele Braga
Hrají: Marcello Fonte, Edoardo Pesce, Nunzia Schiano, Adamo Dionisi, Francesco Acquaroli, Alida Baldari Calabria, Gianluca Gobbi, Aniello Arena

Na chudém předměstí mezi metropolí a divočinou platí jen zákon nejsilnějšího. Marcello (Marcello Fonte) zde dělí svůj čas mezi práci v skromném salónu pro psy a láskyplnou péči o dceru (Alida Baldari Calabria). Bohužel do jeho života zasahuje i neurvalý Simoncino (Edoardo Pesce), bývalý boxer a surovec, který terorizuje celé okolí. Drobného a citlivého Marcella k němu poutá nejednoznačný a ponižující vztah. Ve snaze vrátit svému životu důstojnost naplánuje zoufalou pomstu a jeho akce vede k nečekanému výsledku.

Kód: Vybrat vše
Jen registrovaní mohou vidět odkaz. Přihlaš se nebo se zaregistruj.


Format : Matroska
Format version : Version 4
File size : 2.27 GiB
Duration : 1 h 42 min
Overall bit rate : 3 162 kb/s

Video
Format : AVC
Format/Info : Advanced Video Codec
Format profile : Main@L4.1
Format settings : CABAC / 2 Ref Frames
Format settings, CABAC : Yes
Format settings, ReFrames : 2 frames
Codec ID : V_MPEG4/ISO/AVC
Duration : 1 h 42 min
Bit rate : 2 750 kb/s
Width : 1 920 pixels
Height : 800 pixels

Display aspect ratio : 2.40:1
Frame rate mode : Constant
Frame rate : 24.000 FPS

Audio
ID : 2
Format : AC-3
Format/Info : Audio Coding 3
Commercial name : Dolby Digital
Codec ID : A_AC3
Duration : 1 h 42 min
Bit rate mode : Constant
Bit rate : 448 kb/s
Channel(s) : 6 channels
Channel layout : L R C LFE Ls Rs
Sampling rate : 48.0 kHz
Frame rate : 31.250 FPS (1536 SPF)
Bit depth : 16 bits
Compression mode : Lossy
Stream size : 330 MiB (14%)
Writing library : Lavc58.27.101 ac3_fixed
Language : Italian
Service kind : Complete Main
Default : Yes
Forced : No

Text
ID : 3
Format : UTF-8
Codec ID : S_TEXT/UTF8
Codec ID/Info : UTF-8 Plain Text
Duration : 1 h 36 min
Bit rate : 25 b/s
Count of elements : 736
Stream size : 18.1 KiB (0%)
Language : Czech
Default : Yes
Forced : No

Kód: Vybrat vše
Jen registrovaní mohou vidět odkaz. Přihlaš se nebo se zaregistruj.


Nahoru 
 Profil  
Odpovědět s citací  
 Předmět příspěvku: Re: Dogman (2018)
 Příspěvek Napsal: pát 16. lis 2018 14:57:09 
Offline
Občasný přispěvatel
Občasný přispěvatel

Registrován: pát 02. lis 2018 11:51:48
Příspěvky: 87
ponte píše:Obrázek

Dogman (2018)

Drama

Itálie / Francie, 2018, 102 min

Režie: Matteo Garrone
Scénář: Ugo Chiti, Massimo Gaudioso, Matteo Garrone
Kamera: Nicolai Brüel
Hudba: Michele Braga
Hrají: Marcello Fonte, Edoardo Pesce, Nunzia Schiano, Adamo Dionisi, Francesco Acquaroli, Alida Baldari Calabria, Gianluca Gobbi, Aniello Arena

Na chudém předměstí mezi metropolí a divočinou platí jen zákon nejsilnějšího. Marcello (Marcello Fonte) zde dělí svůj čas mezi práci v skromném salónu pro psy a láskyplnou péči o dceru (Alida Baldari Calabria). Bohužel do jeho života zasahuje i neurvalý Simoncino (Edoardo Pesce), bývalý boxer a surovec, který terorizuje celé okolí. Drobného a citlivého Marcella k němu poutá nejednoznačný a ponižující vztah. Ve snaze vrátit svému životu důstojnost naplánuje zoufalou pomstu a jeho akce vede k nečekanému výsledku.

Kód: Vybrat vše
Jen registrovaní mohou vidět odkaz. Přihlaš se nebo se zaregistruj.


Format : Matroska
Format version : Version 4
File size : 4.70 GiB
Duration : 1 h 42 min

Video
ID : 4
Format : AVC
Format/Info : Advanced Video Codec
Format profile : High@L4.1
Format settings : CABAC / 12 Ref Frames
Format settings, CABAC : Yes
Format settings, ReFrames : 12 frames
Codec ID : V_MPEG4/ISO/AVC
Duration : 1 h 42 min
Bit rate : 5 887 kb/s
Width : 1 280 pixels
Height : 534 pixels
Display aspect ratio : 2.40:1
Frame rate mode : Constant
Frame rate : 24.000 FPS

Audio
ID : 1
Format : AC-3
Format/Info : Audio Coding 3
Commercial name : Dolby Digital
Codec ID : A_AC3
Duration : 1 h 42 min
Bit rate mode : Constant
Bit rate : 640 kb/s
Channel(s) : 6 channels
Channel layout : L R C LFE Ls Rs
Sampling rate : 48.0 kHz
Frame rate : 31.250 FPS (1536 SPF)
Bit depth : 16 bits
Compression mode : Lossy
Stream size : 471 MiB (10%)
Language : Italian
Service kind : Complete Main
Default : Yes
Forced : No

Text #1
ID : 2
Format : PGS
Muxing mode : zlib
Codec ID : S_HDMV/PGS
Codec ID/Info : Picture based subtitle format used on BDs/HD-DVDs
Duration : 1 h 36 min
Bit rate : 18.8 kb/s
Count of elements : 1586
Stream size : 13.0 MiB (0%)
Language : Italian
Default : No
Forced : No

Text #2
ID : 3
Format : UTF-8
Codec ID : S_TEXT/UTF8
Codec ID/Info : UTF-8 Plain Text
Duration : 1 h 36 min
Bit rate : 31 b/s
Count of elements : 776
Stream size : 22.6 KiB (0%)
Language : English
Default : No
Forced : No

Text #3
ID : 5
Format : UTF-8
Codec ID : S_TEXT/UTF8
Codec ID/Info : UTF-8 Plain Text
Duration : 1 h 36 min
Bit rate : 25 b/s
Count of elements : 736
Stream size : 18.1 KiB (0%)
Language : Czech

Menu
00:00:00.000 : en:00:00:00.000
00:09:22.833 : en:00:09:22.833
00:23:21.125 : en:00:23:21.125
00:27:55.667 : en:00:27:55.667
00:33:13.458 : en:00:33:13.458
00:45:37.625 : en:00:45:37.625
00:53:16.167 : en:00:53:16.167
01:02:54.542 : en:01:02:54.542
01:09:33.917 : en:01:09:33.917
01:15:07.333 : en:01:15:07.333
01:25:24.208 : en:01:25:24.208
01:37:30.125 : en:01:37:30.125

Kód: Vybrat vše
Jen registrovaní mohou vidět odkaz. Přihlaš se nebo se zaregistruj.


Nahoru 
 Profil  
Odpovědět s citací  
Zobrazit příspěvky za předchozí:  Seřadit podle  
 
Odeslat nové téma Odpovědět na téma  [ Příspěvků: 2 ] 

MP3Hits - mp3 ke stažení zdarma » ...:DOWNLOAD FILMY:... » Filmy Premiéry


Kdo je online

Uživatelé procházející toto fórum: Žádní registrovaní uživatelé a 2 návštevníků

 
 

  Nemůžete zakládat nová témata v tomto fóru
Nemůžete odpovídat v tomto fóru
Nemůžete upravovat své příspěvky v tomto fóru
Nemůžete mazat své příspěvky v tomto fóru

Hledat:
Přejít na:  

REKLAMNÍ SDĚLENÍ

----------------

----------------