Registrovat    Přihlásit se    Fórum    Hledat    FAQ
Vyspěte se královsky! www.hezkynabytek.cz
MP3Hits - mp3 ke stažení zdarma » ...:DOWNLOAD FILMY:... » Filmy Premiéry
 

MP3Hits - mp3 ke stažení zdarma » ...:DOWNLOAD FILMY:... » Filmy Premiéry




Odeslat nové téma Odpovědět na téma  [ Příspěvek: 1 ] 
Autor Zpráva
 Předmět příspěvku: Chappaquiddick (2017)
 Příspěvek Napsal: čtv 08. lis 2018 22:21:59 
Offline
Občasný přispěvatel
Občasný přispěvatel

Registrován: pát 02. lis 2018 11:51:48
Příspěvky: 87
ponte píše:Obrázek

Chappaquiddick (2017)

Životopisný / Drama / Historický

USA, 2017, 107 min

Režie: John Curran
Scénář: Taylor Allen, Andrew Logan
Kamera: Maryse Alberti
Hudba: Garth Stevenson
Hrají: Kate Mara, Jason Clarke, Clancy Brown, Olivia Thirlby, Ed Helms, Bruce Dern, Jim Gaffigan, Taylor Nichols, John Fiore, Andria Blackman, Victor Warren, Lexie Roth
Producenti: Mark Ciardi, Chris Cowles, Chris Fenton
Střih: Keith Fraase
Scénografie: John P. Goldsmith

Senátor Ted Kennedy (Jason Clarke) z vlivného politického klanu sjel se svým vozem do vody u ostrova Chappaquiddick. Jeho spolujezdkyně, asistentka Mary Jo Kopechne (Kate Mara) se v autě ocitla v pasti a utopila se. Kennedy tehdy nezavolal policii, jel do hotelu, kde se opil, snažil se vytvořit si alibi s pomocí svého otce a zachránit tak svoji politickou kariéru.

Kód: Vybrat vše
Jen registrovaní mohou vidět odkaz. Přihlaš se nebo se zaregistruj.


Format : Matroska
Format version : Version 4
File size : 2.03 GiB
Duration : 1 h 46 min
Overall bit rate : 2 724 kb/s

Video
Format : AVC
Format/Info : Advanced Video Codec
Format profile : High@L4.1
Format settings : CABAC / 4 Ref Frames
Format settings, CABAC : Yes
Format settings, ReFrames : 4 frames
Codec ID : V_MPEG4/ISO/AVC
Duration : 1 h 46 min
Bit rate : 2 500 kb/s
Width : 1 920 pixels
Height : 808 pixels

Display aspect ratio : 2.40:1
Frame rate mode : Constant
Frame rate : 23.976 (23976/1000) FPS

Audio
Format : AAC LC
Format/Info : Advanced Audio Codec Low Complexity
Codec ID : A_AAC-2
Duration : 1 h 46 min
Bit rate : 224 kb/s
Channel(s) : 6 channels
Channel layout : C L R Ls Rs LFE
Sampling rate : 48.0 kHz
Frame rate : 46.875 FPS (1024 SPF)
Compression mode : Lossy
Delay relative to video : -43 ms
Stream size : 171 MiB (8%)
Language : English

Text
ID : 3
Format : UTF-8
Codec ID : S_TEXT/UTF8
Codec ID/Info : UTF-8 Plain Text
Duration : 1 h 40 min
Bit rate : 75 b/s
Count of elements : 1483
Stream size : 55.5 KiB (0%)
Language : Czech

Kód: Vybrat vše
Jen registrovaní mohou vidět odkaz. Přihlaš se nebo se zaregistruj.


Nahoru 
 Profil  
Odpovědět s citací  
Zobrazit příspěvky za předchozí:  Seřadit podle  
 
Odeslat nové téma Odpovědět na téma  [ Příspěvek: 1 ] 

MP3Hits - mp3 ke stažení zdarma » ...:DOWNLOAD FILMY:... » Filmy Premiéry


Kdo je online

Uživatelé procházející toto fórum: Žádní registrovaní uživatelé a 1 návštěvník

 
 

  Nemůžete zakládat nová témata v tomto fóru
Nemůžete odpovídat v tomto fóru
Nemůžete upravovat své příspěvky v tomto fóru
Nemůžete mazat své příspěvky v tomto fóru

Hledat:
Přejít na:  

REKLAMNÍ SDĚLENÍ

----------------

----------------