Registrovat    Přihlásit se    Fórum    Hledat    FAQ
Vyspěte se královsky! www.hezkynabytek.cz
MP3Hits - mp3 ke stažení zdarma » ...:DOWNLOAD FILMY:... » Filmy Premiéry
 

MP3Hits - mp3 ke stažení zdarma » ...:DOWNLOAD FILMY:... » Filmy Premiéry




Odeslat nové téma Odpovědět na téma  [ Příspěvek: 1 ] 
Autor Zpráva
 Předmět příspěvku: Black '47 (2018)
 Příspěvek Napsal: pon 05. lis 2018 17:03:51 
Offline
Občasný přispěvatel
Občasný přispěvatel

Registrován: pát 02. lis 2018 11:51:48
Příspěvky: 87
ponte píše:Obrázek

Black '47 (2018)

Action , Drama

Irsko / Lucembursko, 2018, 96 min

Režie: Lance Daly
Scénář: Lance Daly, P.J. Dillon, Pierce Ryan
Kamera: Declan Quinn
Hudba: Brian Byrne
Hrají: Hugo Weaving, James Frecheville, Stephen Rea, Freddie Fox, Barry Keoghan, Jim Broadbent, Moe Dunford, Sarah Greene, Antonia Campbell-Hughes, Aidan McArdle, Dermot Crowley, Laurence O'Fuarain, Fiach Kunz, Michael Reed, Colm Seoighe, Michel Tereba
Producenti: Arcadiy Golubovich, Tim O'Hair
Střih: John Walters
Scénografie: Waldemar Kalinowski
Kostýmy: Magdalena Labuz

Setkaná v Írsku počas Veľkého hlada, dráma sleduje írskeho Rangera, ktorý bojuje za britskú armádu v zahraničí, keď opúšťa svoju pozíciu, aby sa opäť spojil so svojou rodinou. Napriek tomu, že zažil vojnové hrôzy, je šokovaný zničením hladomoru svojej vlasti a brutalizáciou jeho ľudu a jeho rodiny.

Kód: Vybrat vše
Jen registrovaní mohou vidět odkaz. Přihlaš se nebo se zaregistruj.


Format : Matroska
Format version : Version 4
File size : 3.26 GiB
Duration : 1 h 39 min
Overall bit rate : 4 680 kb/s

Video

Format : AVC
Format/Info : Advanced Video Codec
Format profile : High@L4
Format settings : CABAC / 4 Ref Frames
Format settings, CABAC : Yes
Format settings, ReFrames : 4 frames
Codec ID : V_MPEG4/ISO/AVC
Duration : 1 h 39 min
Bit rate : 4 039 kb/s
Width : 1 920 pixels]

Height : 800 pixels
Display aspect ratio : 2.40:1
Frame rate mode : Constant
Frame rate : 24.000 FPS

Audio
Format : E-AC-3
Format/Info : Enhanced AC-3
Commercial name : Dolby Digital Plus
Codec ID : A_EAC3
Duration : 1 h 39 min
Bit rate mode : Constant
Bit rate : 640 kb/s
Channel(s) : 6 channels
Channel layout : L R C LFE Ls Rs
Sampling rate : 48.0 kHz
Frame rate : 31.250 FPS (1536 SPF)
Compression mode : Lossy
Stream size : 456 MiB (14%)
Language : English
Service kind : Complete Main
Default : Yes
Forced : No

Text #1
ID : 3
Format : UTF-8
Codec ID : S_TEXT/UTF8
Codec ID/Info : UTF-8 Plain Text
Duration : 1 h 39 min
Bit rate : 31 b/s
Count of elements : 961
Stream size : 23.2 KiB (0%)
Title : SDH
Language : English
Default : No
Forced : No

Text #2
ID : 4
Format : UTF-8
Codec ID : S_TEXT/UTF8
Codec ID/Info : UTF-8 Plain Text
Duration : 1 h 33 min
Bit rate : 27 b/s
Count of elements : 646
Stream size : 18.9 KiB (0%)
Language : Czech

Kód: Vybrat vše
Jen registrovaní mohou vidět odkaz. Přihlaš se nebo se zaregistruj.


Nahoru 
 Profil  
Odpovědět s citací  
Zobrazit příspěvky za předchozí:  Seřadit podle  
 
Odeslat nové téma Odpovědět na téma  [ Příspěvek: 1 ] 

MP3Hits - mp3 ke stažení zdarma » ...:DOWNLOAD FILMY:... » Filmy Premiéry


Kdo je online

Uživatelé procházející toto fórum: Žádní registrovaní uživatelé a 0 návštevníků

 
 

  Nemůžete zakládat nová témata v tomto fóru
Nemůžete odpovídat v tomto fóru
Nemůžete upravovat své příspěvky v tomto fóru
Nemůžete mazat své příspěvky v tomto fóru

Hledat:
Přejít na:  

REKLAMNÍ SDĚLENÍ

----------------

----------------