Registrovat    Přihlásit se    Fórum    Hledat    FAQ
Vyspěte se královsky! www.hezkynabytek.cz
MP3Hits - mp3 ke stažení zdarma » ...:DOWNLOAD FILMY:... » Filmy Dokumenty
 

MP3Hits - mp3 ke stažení zdarma » ...:DOWNLOAD FILMY:... » Filmy Dokumenty




Odeslat nové téma Odpovědět na téma  [ Příspěvek: 1 ] 
Autor Zpráva
 Předmět příspěvku: Above Majestic (2018)
 Příspěvek Napsal: čtv 15. lis 2018 0:47:16 
Offline
Mastr Linker
Mastr Linker

Registrován: pát 02. lis 2018 11:51:48
Příspěvky: 609
Obrázek

Above Majestic (2018)


Dokumentární

USA, 2018

Režie: Roger R. Richards
Hrají: dr. David Wilcock

Pozrite sa na pôvod, históriu a sprisahania za "majestátnou 12", tajnú skupinu vojenských a firemných postavičiek, ktorí sú poverení mimozemskou technikou reverzného inžinierstva.

Kód: Vybrat vše
Jen registrovaní mohou vidět odkaz. Přihlaš se nebo se zaregistruj.


Format : Matroska
Format version : Version 4
File size : 2.11 GiB
Duration : 2 h 13 min
Overall bit rate : 2 264 kb/s

Video
Format : MPEG-4 Visual
Format profile : Advanced Simple@L5
Format settings : BVOP2 / QPel
Format settings, BVOP : 2
Format settings, QPel : Yes
Format settings, GMC : No warppoints
Format settings, Matrix : Default (H.263)
Muxing mode : Packed bitstream
Codec ID : V_MS/VFW/FOURCC / XVID
Codec ID/Hint : XviD
Duration : 2 h 13 min
Bit rate : 2 133 kb/s
Width : 720 pixels
Height : 544 pixels

Display aspect ratio : 16:9
Frame rate mode : Constant
Frame rate : 29.970 (30000/1001) FPS

Audio
Format : MPEG Audio
Format version : Version 1
Format profile : Layer 3
Format settings : Joint stereo / MS Stereo
Codec ID : A_MPEG/L3
Codec ID/Hint : MP3
Duration : 2 h 13 min
Bit rate mode : Constant
Bit rate : 128 kb/s
Channel(s) : 2 channels
Sampling rate : 44.1 kHz
Frame rate : 38.281 FPS (1152 SPF)
Compression mode : Lossy
Stream size : 122 MiB (6%)
Writing library : LAME3.99.5
Default : Yes
Forced : No

Text
ID : 3
Format : UTF-8
Codec ID : S_TEXT/UTF8
Codec ID/Info : UTF-8 Plain Text
Duration : 1 h 14 min
Bit rate : 94 b/s
Count of elements : 1470
Stream size : 51.9 KiB (0%)
Language : Czech

Kód: Vybrat vše
Jen registrovaní mohou vidět odkaz. Přihlaš se nebo se zaregistruj.


Nahoru 
 Profil  
Odpovědět s citací  
Zobrazit příspěvky za předchozí:  Seřadit podle  
 
Odeslat nové téma Odpovědět na téma  [ Příspěvek: 1 ] 

MP3Hits - mp3 ke stažení zdarma » ...:DOWNLOAD FILMY:... » Filmy Dokumenty


Kdo je online

Uživatelé procházející toto fórum: Žádní registrovaní uživatelé a 0 návštevníků

 
 

  Nemůžete zakládat nová témata v tomto fóru
Nemůžete odpovídat v tomto fóru
Nemůžete upravovat své příspěvky v tomto fóru
Nemůžete mazat své příspěvky v tomto fóru

Hledat:
Přejít na:  

REKLAMNÍ SDĚLENÍ

----------------

----------------